envyjobless.com.v3

The.51st.State.2001.German.DL.1080p.BluRay.x264-iNKLUSiON - Kommentare

Board RSS API Hilfe Kontakt
Semen
Semen User 18. Sep 2018, 09:35 Uhr
Keine Bewertung des Benutzers
Ist 2-pass, nicht wie in der NFO angegeben CRF. Macht auch Sinn, da das Bild körnig ist.

MediaInfo
[Spoiler: Zum Lesen hier klicken!]
General
Complete name : inkl-the51state-1080p.mkv
Format : Matroska
Format version : Version 4
File size : 7.64 GiB
Duration : 1 h 32 min
Overall bit rate : 11.8 Mb/s
Encoded date : UTC 2018-09-16 05:36:52
Writing application : mkvmerge v24.0.0 ('Beyond The Pale') 32-bit
Writing library : libebml v1.3.6 + libmatroska v1.4.9

Video
ID : 1
Format : AVC
Format/Info : Advanced Video Codec
Format profile : [email protected]
Format settings : CABAC / 5 Ref Frames
Format settings, CABAC : Yes
Format settings, RefFrames : 5 frames
Codec ID : V_MPEG4/ISO/AVC
Duration : 1 h 32 min
Bit rate : 8 793 kb/s
Width : 1 920 pixels
Height : 824 pixels
Display aspect ratio : 2.35:1
Frame rate mode : Constant
Frame rate : 23.976 (24000/1001) FPS
Color space : YUV
Chroma subsampling : 4:2:0
Bit depth : 8 bits
Scan type : Progressive
Bits/(Pixel*Frame) : 0.232
Stream size : 5.69 GiB (74%)
Writing library : x264 core 155 r2901 7d0ff22
Encoding settings : cabac=1 / ref=5 / deblock=1:-1:-1 / analyse=0x3:0x113 / me=umh / subme=7 / psy=1 / psy_rd=1.00:0.00 / mixed_ref=1 / me_range=16 / chroma_me=1 / trellis=1 / 8x8dct=1 / cqm=0 / deadzone=21,11 / fast_pskip=0 / chroma_qp_offset=-2 / threads=12 / lookahead_threads=2 / sliced_threads=0 / nr=0 / decimate=1 / interlaced=0 / bluray_compat=0 / constrained_intra=0 / bframes=3 / b_pyramid=2 / b_adapt=1 / b_bias=0 / direct=3 / weightb=1 / open_gop=0 / weightp=2 / keyint=250 / keyint_min=23 / scenecut=40 / intra_refresh=0 / rc_lookahead=40 / rc=2pass / mbtree=1 / bitrate=8793 / ratetol=1.0 / qcomp=0.60 / qpmin=0 / qpmax=69 / qpstep=4 / cplxblur=20.0 / qblur=0.5 / ip_ratio=1.40 / aq=1:1.00
Default : Yes
Forced : No

Audio #1
ID : 2
Format : DTS
Format/Info : Digital Theater Systems
Codec ID : A_DTS
Duration : 1 h 32 min
Bit rate mode : Constant
Bit rate : 1 509 kb/s
Channel(s) : 6 channels
Channel layout : C L R Ls Rs LFE
Sampling rate : 48.0 kHz
Frame rate : 93.750 FPS (512 SPF)
Bit depth : 24 bits
Compression mode : Lossy
Stream size : 1 000 MiB (13%)
Language : German
Default : Yes
Forced : No

Audio #2
ID : 3
Format : DTS
Format/Info : Digital Theater Systems
Codec ID : A_DTS
Duration : 1 h 32 min
Bit rate mode : Constant
Bit rate : 1 509 kb/s
Channel(s) : 6 channels
Channel layout : C L R Ls Rs LFE
Sampling rate : 48.0 kHz
Frame rate : 93.750 FPS (512 SPF)
Bit depth : 24 bits
Compression mode : Lossy
Stream size : 1 000 MiB (13%)
Language : English
Default : No
Forced : No

Text
ID : 4
Format : UTF-8
Codec ID : S_TEXT/UTF8
Codec ID/Info : UTF-8 Plain Text
Duration : 1 h 26 min
Bit rate : 0 b/s
Count of elements : 13
Stream size : 524 Bytes (0%)
Language : German
Default : Yes
Forced : Yes
0
5


Releasebewertung
Produktbewertung: 7,0 / 10
Gesamt: 8 Stimmen

Release-Optionen

Release-Info
Zeit:
16. Sep 2018, 18:44 Uhr
Release-Group:
Release-Größe:
7826 MB
Nuked:
Nein
Repack oder Proper:
Nein
Read NFO:
Nein
NFO-Größe:
1,72 KB
Video-Stream:
Blu-ray
Audio-Stream:
DTS
Kategorien:

© 2004-2018 by envyjobless.comease. Alle Rechte vorbehalten.
Version: 3.4-722b773381020550e9825ad02ab409ba873efc62 [20180819-491]
Besucher online: 431
Mitglieder online: 34
P2P-Releases
Entertainment
Nach Oben

Hast du das verstanden? Ja! | Nein!

Is that clear? Yes! | No!